Обсуждение Редактирование и конвертация видео

earwenelf

Ословед
при каком котейнере/формате/кодеке при БИТРЕЙТЕ 256 можно получить наилучшую картинку при
adobe media encoder + adobe media server = на выходе flash поток?

не совсем поняла, при чём тут адоб и флэш, если кодируете в мпег4... попробовать можно xvid, divx, h.264, потом выберете на свой вкус, т.к. восприятие качества часто бывает субъективно.
 
adobe flash media server принимает поток в wm9
насколько я понимаю, это вин медиа 9
так вот - что сие такое?
 

earwenelf

Ословед
adobe flash media server принимает поток в wm9
насколько я понимаю, это вин медиа 9
так вот - что сие такое?

ну это кодек от Майкрософта, вроде он уже устарел, они даже публиковать на сайте его перестали. плюс его в том, что он идёт с WinMedia Player, т.е. он есть в любой современной винде, не надо дополнительно ставить. по соотношению качество/размер проигрывает современным форматам.
 

    Hyper09

    очки: 237
    Нет комментариев

Миранда

Ословед
Доброго времени суток. Плиз, посоветуйте как быть( Начала делать клип в Сони Вегасе, и один из файлов не могу добавить в проект. Во-первых, он весит 8,36 ГБ, а во вторых он в формате mkv. Тотал видео конвертер отказался работать, выдав ошибку, что он не может открыть файл. Виртуал даб тоже выдал что-то подобное. Чем его можно отконвертировать, и какие параметры лучше установить? Хотелось бы максимально возможное в этом случае качество, так как с ним потом в Сони Вегасе работать.
Video #1
ID : 1
Format : AVC
Format/Info : Advanced Video Codec
Format profile : High@L4.1
Format settings, CABAC : Yes
Format settings, ReFrames : 10 frames
Muxing mode : Container profile=Unknown@4.1
Codec ID : V_MPEG4/ISO/AVC
Duration : 2h 33mn
Bit rate : 5 754 Kbps
Nominal bit rate : 5 908 Kbps
Width : 1 280 pixels
Height : 534 pixels
Display aspect ratio : 2.35:1
Frame rate : 23.976 fps
Resolution : 24 bits
Colorimetry : 4:2:0
Scan type : Progressive
Bits/(Pixel*Frame) : 0.351
Stream size : 6.16 GiB (74%)
 

    TIGGO

    очки: 92
    +

TIGGO

Ословед
Меня тоже интересует почти аналогичный вопрос !
Подскажите прогу с помощью которой можно конвектировать видео с .mkv в mpeg2 или mpg ?
 

Миранда

Ословед
я уже сама разобралась) могу посоветовать Xilisoft Video Converter Ultimate. Высоту/ширину придется вбивать вручную, выделяя и заменяя из тех, что есть. Получается очень не плохо.
 
Здравствуйте!
Подскажте, существуют ли программы, создающие на жёстком диске компьютера идентичную (без какой-либо обработки/сжатия, байт-в-байт, с сохранением тайм-кода и пр.) копию данных, записанных на miniDV кассете? Переношу сейчас данные с miniDV на двухслойные DVD, т.к. последние стоят дешевле. И хочу, чтобы такое копирование было совершенно без потерь. Пробовал работать в Panasonic Motion DV Studio, но через эту программу почему-то не сохраняетя тайм-код. Может быть я что-то делаю не так? И вообще, кто нибудь знает, насколько это качественная программа?
И последний вопрос (из праздного любопытства): можно ли на DV-кассету как-нибудь записывать произвольные компьютерные данные (не обязательно видео)?

Спасибо.
 

SnoNik

Ословед
Да, Panasonic Motion DV Studio как раз и есть программа захвата видео с miniDV кассеты, что в принципе и есть создание полной копии видео с кассеты. Когда-то работал в этой программе проблем с качеством не было. Насчет тайм-кода ничего сказать не могу но теоретически он должен сохранятся иначе теряется смысл в проге.
 
Награды
2
Вот такая ерунда возникла, конвертирую формат mkv в avi прогой ImTOO MKV Converter 5.1.37 , изображение класс , а звука нет почему то? Подскажите настройки пожалуйста? ImTOO MKV Converter версия 6 пробовал,получается но прога глючит без регистрации.
 

mensh

Ословед
Награды
5
Вот такая ерунда возникла, конвертирую формат mkv в avi прогой ImTOO MKV Converter 5.1.37 , изображение класс , а звука нет почему то? Подскажите настройки пожалуйста? ImTOO MKV Converter версия 6 пробовал,получается но прога глючит без регистрации.

Перепробовал кучу программ, остановился на Freemake Video Converter v2.4.0.4 Portable (богатый функционал; после настроек сразу виден размер будущего файла)

Freemake Video Converter преобразует между видео форматами, рипует DVD, конвертирует в форматы для различных устройств, записывает DVD, создавает слайд-шоу и визуализацию музыки, а также может вырезать, соединять, вращать и загружать видео, фото, музыку на YouTube и подобные сайты.

Freemake Video Converter – это бесплатное универсальное приложение, которое предлагает вниманию пользователей инструменты для быстрого конвертирования видеоматериалов в распространенные форматы, их последующего редактирования и записи на оптические носители. Freemake Video Converter пользователи также смогут выполнять некоторые другие действия, например, подготавливать материалы к просмотру на специфических мобильных устройствах, создавать качественные слайд-шоу и извлекать звуковое сопровождение из понравившихся фильмов.

Основные возможности:
• Многочисленные входные форматы. Импорт видео с видео камер (AVI, MPG, Tod, MOV, DV, RM), с мобильных телефонов (3GP, 3G2, 3GP2), из Интернета (FLV, SWF, mp4) и PC (WMV, MKV, QT, TS, МТС). А также форматы музыкальные, DVD и фотографий поддерживаются.
• Конвертирование на IPod, iPhone, iPad, PSP, Xbox, Blackberry. Получить видео уже подготовленное для Ваших любимых мультимедийных устройств. Одновременное преобразование нескольких видео, используя один и тот же пресет.
• Редактирование видео. Вырезать ненужные фрагменты из видео файлов. Перебросить или повернуть видео. Объединение нескольких видео в один файл для полнометражного фильма.
• Рипование DVD (незащищенных только). Преобразование в AVI, WMV, MP4, 3GP, DVD, MP3. Конвертирование видео в самые популярные видео форматы. Извлечение аудио из видео клипов и DVD. Конвертация аудио файлов различных форматов в MP3.
• Публикация на YouTube. Загрузка видео, слайд-шоу, музыки на YouTube. Добавить AVI, WMV, MP4, 3GP, JPG, BMP, GIF, MP3 на YouTube. Данная программа поможет вам нарезать видео (при необходимости) на 15-минутные части и вставлять их в один плейлист YouTube.
• Запись DVD. Запись до 20 часов ваших любимых фильмов в стандартный диск DVD. Применение различных типов меню DVD. Наслаждайтесь высококачественным воспроизведением на вашем DVD-плеере.
• Создание фото слайд-шоу. Создайте свой собственный слайд-шоу с фоновой музыкой. Загрузка слайд-шоу на YouTube.
Для запуска и работы программы необходим установленный Microsoft. NET Framework v4. Если он у вас не установлен еще, Freemake Video Converter поможет вам в установке

ОС: Windows XP/Vista/7 (32/64)
Язык: English
Год: 2011

 

    earwenelf

    очки: 57
    тоже пользуюсь, супер

Laroux

Ословед
Скажите, как можно подружить virtualdubmod и wmv файл: не могу конвертнуть его в avi.

File info:

General
Format : Windows Media
File size : 1.76 GiB
Duration : 2h 2mn
Overall bit rate mode : Constant
Overall bit rate : 2 059 Kbps
Maximum Overall bit rate : 2 061 Kbps


Video
ID : 2
Format : VC-1
Format profile : MP@HL
Codec ID : WMV3
Codec ID/Info : Windows Media Video 9
Codec ID/Hint : WMV3
Description of the codec : VC-1 - Main Profile
Duration : 2h 2mn
Bit rate mode : Constant
Bit rate : 1 915 Kbps
Width : 1 024 pixels
Height : 576 pixels
Display aspect ratio : 16:9
Frame rate : 25.000 fps
Bit depth : 8 bits
Scan type : Progressive
Compression mode : Lossy
Bits/(Pixel*Frame) : 0.130
Stream size : 1.63 GiB (93%)

Audio
ID : 1
Format : WMA
Format version : Version 2
Codec ID : 161
Codec ID/Info : Windows Media Audio
Description of the codec : Windows Media Audio 9.2 - 128 kbps, 48 kHz, stereo (A/V) 1-pass CBR
Duration : 2h 2mn
Bit rate mode : Constant
Bit rate : 128 Kbps
Channel(s) : 2 channels
Sampling rate : 48.0 KHz
Bit depth : 16 bits
Stream size : 112 MiB (6%)
 

IIAPACOJIbKA

Ословед
Народ подскажите как в видео допустим форматов .avi и .mkw вшить субтитры чтоб они были не отдельным файликом а вместе с виде чтоб их можно было просмотреть на плеере или на dvd-проигрыватиле помогите пож!!!
 
Господа видеографы, подскажите насчет Full HD. Впервые сталкиваюсь с ним. В какой проге лучше монтировать и, самое главное, в каком формате выводить конечный файл, чтобы было минимальная (а лучше нулевая) потеря качества. Еще я слышал, что на компах с Window'сом .mov файлы некорректно работают, так как они под apple заточены. В общем, вот так:)
 

earwenelf

Ословед
Господа видеографы, подскажите насчет Full HD. Впервые сталкиваюсь с ним. В какой проге лучше монтировать и, самое главное, в каком формате выводить конечный файл, чтобы было минимальная (а лучше нулевая) потеря качества.

full hd - это, собственно, разрешение видео 1920×1080. можно конвертить разными кодеками, обычно контейнер mkv используется. прогу можно Freemake тот же - см. несколько сообщений ранее ссылку.
 

    ELIJAH

    очки: 978
    Да, оно самое

Doberman

Самец :)
есть видео плохого качества.
понимаю что из области фантастики,но можно его как нибудь улучшить с помощью проги?
не сделать из него HD 1080p а чтобы номера на машине допустим прочитать? убрать шумы повысить четкость и тд и тп. приблизить определенное место в кадре.

если есть такая прога подскажите название.
 

Dimonver

Ословед
Награды
6
есть видео плохого качества.
понимаю что из области фантастики,но можно его как нибудь улучшить с помощью проги?
не сделать из него HD 1080p а чтобы номера на машине допустим прочитать? убрать шумы повысить четкость и тд и тп. приблизить определенное место в кадре.

если есть такая прога подскажите название.
денойсеров дофига
 
Сверху