Сумерки / Twilight

Satine

Ословед
Music videos and performances
from
the twilight saga
soundtracks

attachment.php

Продолжительность: 01:19:14
Год выпуска: 2010
Описание:
Сборник клипов и концертных выступление групп участвовавших при создании фильма.

1. Muse - Neutron Star Collision (Love Is Forever)
2. Paramore - Decode
3. Death Cab For Cutie - Meet Me On The Equinox
4. Cee-Lo Green - What Part Of Forever
5. Anya Marina - Satellite Heart
6. Mutemath - Spotlight
7. Lupe Fiasco - Solar Midnite
8. Editors - No Sound But The Wind
9. The Magic Numbers & Amadou & Mariam - All I Believe In
10. Collective Soul - Tremble For My Beloved
11. Eastern Conference Champions - A Million Miles An Hour
12. Metric - Eclipse (All Yours)
13. Fanfarlo - Atlas
14. Iron & Wine - Flightless Bird, American Mouth
15. Sia - My Love
16. Bon Iver & St. Vincent - Roslyn
17. Sea Wolf - The Violet Hour
18. The Black Ghosts - Full Moon
19. Hurricane Bells - Monsters
20. O.A.R. - Love Is Worth The Fall
Идентификатор: 1
Формат: AVC
Формат/Информация: Advanced Video Codec
Профиль формата: High@L4.1
Параметр CABAC формата: Да
Параметр ReFrames формата: 5 кадры
Параметры GOP формата: M=6, N=8
Идентификатор кодека: V_MPEG4/ISO/AVC
Продолжительность: 1 ч. 19 м.
Битрейт: 4104 Кбит/сек
Ширина: 1280 пикс.
Высота: 720 пикс.
Соотношение сторон: 16:9
Частота кадров: 23,976 кадр/сек
Цветовое пространство: YUV
Подвыборка цветности: 4:2:0
Битовая глубина: 8 бит
Тип развёртки: Прогрессивная
Бит/(Пиксели*Кадры): 0.186
Размер потока: 2,23 Гбайт (84%)
Библиотека кодирования: x264 core 112 r1834 a51816a
Идентификатор: 2
Формат: AC-3
Формат/Информация: Audio Coding 3
Расширение режима: CM (complete main)
Идентификатор кодека: A_AC3
Продолжительность: 1 ч. 19 м.
Вид битрейта: Постоянный
Битрейт: 640 Кбит/сек
Канал(ы): 6 канала(ов)
Расположение каналов: Front: L C R, Side: L R, LFE
Частота: 48,0 КГц
Битовая глубина: 16 бит
Метод сжатия: С потерями
Размер потока: 365 Мбайт (14%)
Язык: English

Music-from-the-Twilight-Saga-Soundtracks-MBlu-ray-720p {from Satine}.mkv 2.64 Гб
 

    Kanra

    очки: 0
    :)
фильм не очень. не помню, что сподвигло досмотреть данную картину до конца. воспоминания тусклые и скучные
 
а вот тут "сумерки" простебнули как сумели :D

Пародийный сериал, сделанный на основе видеоряда саги "Сумерки".
Эдвард и Белла очень давно общались, а их общение не знало границ. Огромное количество времени ребята проводили вместе... Белла считала Эдварда своим парнем, она очень любила его, но Эдвард был другого мнения, ведь он был нетрадиционной сексуальной ориентации. Он являлся Эдвардом - голубым парнем. И как-то раз, он повстречал на школьном дворе прекрасного молодого человека: Роми-красавчика. Эдвард влюбился...
Перевод: GREKFILMS (Дублированный, Юмористический)

01x01 Эдвард - голубой парень (Twilight, смешной перевод) from MarchingCat DVDRip.avi 10.67 Мб
01x02 Эдвард - голубой парень (Twilight, смешной перевод) from MarchingCat DVDRip.avi 9.33 Мб
01x03 Эдвард - голубой парень (Twilight, смешной перевод) from MarchingCat DVDRip.avi 12.34 Мб
01x04 Эдвард - голубой парень (Twilight, смешной перевод) from MarchingCat DVDRip.avi 18.35 Мб
01x05 Эдвард - голубой парень (Twilight, смешной перевод) from MarchingCat DVDRip.avi 7.27 Мб
01x06 Эдвард - голубой парень (Twilight, смешной перевод) from MarchingCat DVDRip.avi 8.44 Мб
01x07 Эдвард - голубой парень (Twilight, смешной перевод) from MarchingCat DVDRip.avi 14.66 Мб
01x08 Эдвард - голубой парень (Twilight, смешной перевод) from MarchingCat DVDRip.avi 11.55 Мб
01x09 Эдвард - голубой парень (Twilight, смешной перевод) from MarchingCat DVDRip.avi 13.79 Мб
01x10 Эдвард - голубой парень (Twilight, смешной перевод) from MarchingCat DVDRip.avi 28.31 Мб
01x11 Эдвард - голубой парень (Twilight, смешной перевод) from MarchingCat DVDRip.avi 40.05 Мб
01x12 Эдвард - голубой парень (Twilight, смешной перевод) from MarchingCat DVDRip.avi 31.73 Мб
 

    Alice

    очки: 47
    Первый раз вижу такое)Спасибо, что выложил ;)

elle

Ословед
Где можно взять фильм на англ. с сабами? Может есть у кого?
 
Сверху