Cумасшедшие за стеклом или мультреалити / Drawn Together

SunJay

Ословед
переделал первый пост, надеюсь всем понравится, старался))

неделю назад вышла полнуметражка, встречаем!

a_153709.jpg


The Drawn Together Movie The Movie.avi
704.59 Мб

The Drawn Together Movie The Movie.srt 125.55 Кб
 

SunJay

Ословед
добавил описание каждой серии из википедии по сезонам

сам полнуметражку еще не успел посмотреть, токо токо скачалась) открывайте VLC плеером. кстати очень интересно кому как, отписывайтесь после просмотра :)
 

SunJay

Ословед
любители? не гуд =(
полнометражку расплющенного космоса только из-за любителей и не смотрю, жду озвучки получше

с сабами самое то, я смотрю фильмы всегда либо в дубляже, либо в оригинале с сабами
больше чем любителей ждать не стоит...
 

izkrys

Ословед
с сабами самое то, я смотрю фильмы всегда либо в дубляже, либо в оригинале с сабами
больше чем любителей ждать не стоит...

с сабами не то... мульт невероятно крут, даже в несколько убогом переводе, так что буду надеяться на проф. озвучку
 

SunJay

Ословед
с сабами не то... мульт невероятно крут, даже в несколько убогом переводе, так что буду надеяться на проф. озвучку

на кинопоиске 14 голосов всего.... фильм уже 10 дней как вышел
о каком проф.озвучке может идти речь...
 

Ворф

Самец :)
Мультреалити Полнометражка / The Drawn Together Movie: The Movie!

Мультреалити Полнометражка / The Drawn Together Movie: The Movie!

a_154907.jpg

Название: Мультреалити Полнометражка
Оригинальное название: The Drawn Together Movie: The Movie!
Год выхода: 2010
Жанр: Боевик, комедия, мультфильм, детектив
Режиссер: Дейв Джесер, Мэтт Сильверштайн / Dave Jeser, Matt Silverstein
В ролях: Ксандер (Xandir), Линг-Линг (Ling-Ling), Принцесса Клара (Princess Clara), Свин Вонючка (Spanky Ham), Супергерой (Captain Hero), Тутси Браунштейн (Toot Braunstein), Фокси Лав (Foxxy Love), Хреногубка (Wooldoor Sockbat).

О фильме:
Фокси Лав неожиданно обнаруживает: их реалити-шоу сняли с эфира. Как? Почему? За выяснением того что, собственно, происходит, мы и застанем наших героев.

Drawn Together Фильм: The Movie! представляет собой анимированный,комедийный DVD фильм написанный и выпущеный оригинальными писателями и исполнительными продюсерами Dave Jeser и Matt Silverstein. Фильм является первым релизом Drawn Together после снятия сериала с эфира и сам фильм об этом. Были возвращены оригинальные голоса персонажей Drawn Together. Фильм будет содержать голоса таких гостей, как Сет Макфарлейн (Family Guy) для "И.З.Р.А.И.Л.Ь." (Интеллектуальная Здоровенная Робото Аниматоро Истребительная Леди), и Вернон Уэллс, как голос интернета. Фильм был спродюсирован Six Point Harness и полностью сделан на Flash анимации.

The.Drawn.Together.Movie.The.Movie.2010.720p.WEB-DL (1)-001.mkv
Format : Matroska
Duration : 1mn 1s
Overall bit rate : 4 883 Kbps
Encoded date : UTC 2010-05-03 13:52:21
Writing application : mkvmerge v3.3.0 ('Language') built on Mar 24 2010 14:59:24
Writing library : libebml v0.8.0 + libmatroska v0.9.0

Video
ID : 1
Format : AVC
Format/Info : Advanced Video Codec
Format profile : High@L3.1
Format settings, CABAC : No
Format settings, ReFrames : 2 frames
Format_Settings_GOP : M=2, N=32
Muxing mode : Container profile=Unknown@3.1
Codec ID : V_MPEG4/ISO/AVC
Duration : 1mn 1s
Width : 1 280 pixels
Height : 720 pixels
Display aspect ratio : 16:9
Frame rate : 23.976 fps
Resolution : 8 bits
Colorimetry : 4:2:0
Scan type : Progressive
Title : Video
Color primaries : BT.709-5, BT.1361, IEC 61966-2-4, SMPTE RP177
Transfer characteristics : BT.709-5, BT.1361
Matrix coefficients : BT.709-5, BT.1361, IEC 61966-2-4 709, SMPTE RP177

Audio #1
ID : 2
Format : MPEG Audio
Format version : Version 1
Format profile : Layer 3
Mode : Joint stereo
Format_Settings_ModeExtension : MS Stereo
Codec ID : A_MPEG/L3
Codec ID/Hint : MP3
Duration : 1mn 1s
Bit rate mode : Constant
Bit rate : 128 Kbps
Channel(s) : 2 channels
Sampling rate : 44.1 KHz
Video delay : 6s 400ms
Stream size : 955 KiB (3%)
Title : Russian
Language : Russian

Audio #2
ID : 3
Format : AAC
Format/Info : Advanced Audio Codec
Format version : Version 4
Format profile : LC
Format settings, SBR : No
Codec ID : A_AAC
Duration : 1mn 1s
Channel(s) : 2 channels
Channel positions : Front: L R
Sampling rate : 48.0 KHz
Title : Original
Language : English

Text
ID : 4
Format : UTF-8
Codec ID : S_TEXT/UTF8
Codec ID/Info : UTF-8 Plain Text
Title : Russian
Language : Russian


Duration : 1mn 1s
Overall bit rate : 4 883 Kbps
Encoded date : UTC 2010-05-03 13:52:21
Writing application : mkvmerge v3.3.0 ('Language') built on Mar 24 2010 14:59:24
Writing library : libebml v0.8.0 + libmatroska v0.9.0

Video
ID : 1
Format : AVC
Format/Info : Advanced Video Codec
Format profile : High@L3.1
Format settings, CABAC : No
Format settings, ReFrames : 2 frames
Format_Settings_GOP : M=2, N=32
Muxing mode : Container profile=Unknown@3.1
Codec ID : V_MPEG4/ISO/AVC
Duration : 1mn 1s
Width : 1 280 pixels
Height : 720 pixels
Display aspect ratio : 16:9
Frame rate : 23.976 fps
Resolution : 8 bits
Colorimetry : 4:2:0
Scan type : Progressive
Title : Video
Color primaries : BT.709-5, BT.1361, IEC 61966-2-4, SMPTE RP177
Transfer characteristics : BT.709-5, BT.1361
Matrix coefficients : BT.709-5, BT.1361, IEC 61966-2-4 709, SMPTE RP177

Audio #1
ID : 2
Format : MPEG Audio
Format version : Version 1
Format profile : Layer 3
Mode : Joint stereo
Format_Settings_ModeExtension : MS Stereo
Codec ID : A_MPEG/L3
Codec ID/Hint : MP3
Duration : 1mn 1s
Bit rate mode : Constant
Bit rate : 128 Kbps
Channel(s) : 2 channels
Sampling rate : 44.1 KHz
Video delay : 6s 400ms
Stream size : 955 KiB (3%)
Title : Russian
Language : Russian

Audio #2
ID : 3
Format : AAC
Format/Info : Advanced Audio Codec
Format version : Version 4
Format profile : LC
Format settings, SBR : No
Codec ID : A_AAC
Duration : 1mn 1s
Channel(s) : 2 channels
Channel positions : Front: L R
Sampling rate : 48.0 KHz
Title : Original
Language : English

Text
ID : 4
Format : UTF-8
Codec ID : S_TEXT/UTF8
Codec ID/Info : UTF-8 Plain Text
Title : Russian
Language : Russian

Страна: США
Продолжительность: 01:11:14
Перевод: Любительский одноголосый

Файл:

Кодек: mkv
Качество: WEB-DL [720p]
Видео: 1280x720, 23.976FPS, 3830kbps
Звук:
Аудио 1: Русский, 2 chanel, 44.1Кгц, 128kbps
Аудио: Английский, 2 chanel, 48Кгц, 192kbps
Субтитры: Есть, перевод от BAKS

a_154905.jpg


a_154904.jpg


a_154906.jpg

Мультреалити Полнометражка The Drawn Together Movie The Movie! (2010) WEB-DL 720p (From Ворф).mkv 2.15 Гб
 

    Navarro

    очки: 33
    плюстыщща тебе за видео))

Navarro

Ословед
Братия и сестры,а другой дорожки звуковой нет? а то уж очень непривычно с этой озвучкой...посерфил инет..ни фига нет(((
 

    Guf

    очки: 32
    Нет комментариев
Сверху